#TITLE:AM-3P;
#SUBTITLE:(Kinetic Rush);
#ARTIST:Ktz & G2R;
#TITLETRANSLIT:;
#SUBTITLETRANSLIT:;
#ARTISTTRANSLIT:;
#CREDIT:;
#BANNER:am3p-banner.png;
#BACKGROUND:am3p-bg.png;
#LYRICSPATH:;
#CDTITLE:;
#MUSIC:AM3Pmix.mp3;
#MUSICLENGTH:90.514;
#OFFSET:-0.040;
#SAMPLESTART:58.225;
#SAMPLELENGTH:12.000;
#SELECTABLE:YES;
#BPMS:0.000=130.600;
#STOPS:;
#BGCHANGES:10.000=SpinTheDisc=1.000=0=0=1
,48.000=HexTunnel.avi=1.000=1=0=1
,80.000=SpinTheDisc=1.000=1=1=1
,112.000=Amoeba1.avi=1.000=0=0=1
;
#FIRSTBEAT:16.000;

#LASTBEAT:196.000;

#SONGFILENAME:Songs/ERICth MIX 2nd Style/AM3p mix/am3p.sm;

#HASMUSIC:1;

#HASBANNER:1;


//---------------dance-single - MANIAC----------------
#NOTES:
     dance-single:
     MANIAC:
     hard:
     8:
     0.439,0.595,0.376,0.221,0.149,224.000,34.000,20.000,0.000,0.000:



0000
0000
0000
0000
,
0000
0000
0000
0000
,
0000
0000
0000
0000
,
0000
0000
0000
0000
,
1002
0100
1000
0100
,
2003
0100
0001
0100
,
3002
0010
0100
0010
,
0103
0100
0100
0000
,
2001
0000
0001
0001
0001
0000
0010
0000
,
3002
0000
1000
1000
1000
0000
0100
0000
,
0023
0000
0001
0001
0001
0000
0001
0000
,
0030
0000
0000
1000
0100
0000
0100
0000
0100
0000
0000
0000
1100
0000
0000
0000
,
1000
0000
0001
0000
1000
0000
0001
0000
0100
0000
0001
0000
1000
0001
0000
0000
,
0100
0000
0000
0010
0000
0000
0000
0000
,
1000
0000
0000
0001
0000
0000
0000
0000
,
1100
0000
0000
0101
0000
0000
1100
0000
0000
0000
0000
0000
1000
0000
0000
0000
,
0001
0010
0100
0010
0000
0000
0000
0000
,
1000
0010
0100
0010
0000
0000
0000
0000
,
1000
0010
1000
0001
0000
0001
1000
0001
,
1001
0000
0000
0110
0000
0000
1001
0000
0000
0000
0000
0000
0000
0000
0000
0000
,
1000
0000
0000
0000
1000
0000
0000
0000
0000
0000
0000
0000
0000
0000
0000
0100
0000
0000
0100
0000
0000
0000
0000
0000
,
0010
0000
0000
0000
0001
0000
0000
0000
0000
0100
0000
0000
0000
0000
0000
1001
0000
0000
1001
0000
0000
0000
0000
0000
,
0100
0000
0010
0000
0000
0000
0000
0000
0000
0000
0000
0000
,
1000
0100
0000
1000
0010
0000
0100
0010
0000
0100
0010
0000
0000
0000
0000
0000
,
0010
0000
0000
0000
0001
0000
0000
0000
0000
0000
0000
0000
0000
0000
0000
0100
0000
0000
0100
0000
0000
0000
0000
0000
,
0010
0000
0000
0000
0001
0000
0000
0000
0000
0100
0000
0000
0000
0000
0000
0010
0000
0000
1000
0000
0000
0000
0000
0000
,
1001
0000
0000
0000
0011
0000
0000
0000
0000
0000
0000
0000
0000
0000
0000
0100
0000
0000
0100
0000
0000
0000
0000
0000
,
1000
0001
1000
0001
2000
0000
0000
0000
3010
0000
0000
0000
0000
0000
0000
0000
,
0100
0000
0000
1000
0100
0000
0000
1000
0100
0000
0000
1000
0100
0000
0000
1000
,
0001
0000
0000
0010
0001
0000
0000
0010
0001
0000
0000
0010
0001
0000
0000
1000
,
0001
0100
0001
0100
0001
1000
0001
1000
,
0010
0000
0000
0000
0010
0000
0000
0000
0010
1000
0100
1000
0010
0000
0000
0000
,
1001
0100
0010
0100
1001
0010
1000
0100
,
1001
0010
0001
0100
1001
0100
0010
0100
,
2001
0000
0000
3020
,
0200
0000
0030
0002
0000
0303
0000
1000
,
1000
0001
0001
0100
0100
0010
0010
0010
,
0010
1001
1010
0011
,
1000
0100
0001
0100
1000
0010
1000
0000
,
0110
0000
0000
0100
0001
0000
0001
0000
0001
0000
0000
0000
0000
0000
0000
0000
,
0210
0000
0010
0001
0001
0000
1300
0000
,
0000
0100
0010
0100
0010
0000
0101
0000
,
2002
0000
0000
3003
,
1010
1100
1010
0000
,
1001
0100
0001
0100
0001
0100
0001
0100
,
0001
1000
0001
1000
0001
1000
0001
1000
,
1001
0010
0100
0010
0100
0001
1000
0000
,
2200
0000
3300
0022
0000
0033
0110
0000
,
2002
0000
0000
0000
,
3003
0000
0000
0000;

//---------------dance-single - ANOTHER----------------
#NOTES:
     dance-single:
     ANOTHER:
     medium:
     4:
     0.369,0.431,0.254,0.022,0.000,209.000,23.000,2.000,0.000,0.000:

0000
0000
0000
0000
,
0000
0000
0000
0000
,
0000
0000
0000
0000
,
0000
0000
0000
0000
,
1001
0000
0010
0000
1000
0001
1000
0100
,
1000
0000
0010
0000
1000
0000
0100
1000
,
0010
0000
1000
0000
0001
1000
0001
0000
,
0001
0001
0001
1001
,
0010
0100
0001
0000
1000
0100
0010
0001
,
1000
0000
1000
0100
1000
0000
1000
0000
,
0010
0000
1000
0000
0001
1000
0001
0000
,
0010
0000
1001
1001
,
0010
0100
0001
0000
1000
0000
0100
0000
,
0010
1000
0100
0000
1000
0000
0001
0000
,
0010
0100
0010
0000
1001
0000
0010
0000
,
1000
0001
1000
0100
,
0010
1000
0100
0000
1000
0000
0001
0000
,
0010
0001
0100
0000
0010
0000
1000
0000
,
0001
1000
0001
1000
0100
0010
0100
0000
,
1001
0110
1001
0000
,
0010
1000
0100
0010
,
0001
1000
0100
0000
,
0001
0010
0100
1000
,
0001
0000
1000
0000
0001
1000
0001
0000
,
0010
0100
0001
1000
,
0100
0000
1001
1001
,
0010
0100
0001
1000
,
0011
0000
1100
0000
0001
1000
0100
0000
,
0010
0010
0010
0010
,
0010
0010
0010
0010
,
0010
0000
0010
0010
0010
0010
0010
0010
,
0010
0010
0010
0010
0010
0010
0010
0000
,
1001
0000
0010
1000
0100
0010
0001
0000
,
1000
0000
0001
1000
0010
0000
0101
0000
,
1000
0100
0001
0000
0100
0000
1000
0000
,
0001
0100
1000
1001
,
0010
0000
1000
0100
0001
0100
1000
0000
,
0010
0000
1000
0010
0001
0010
1000
0000
,
0001
0000
1000
0100
0010
0000
0001
0000
,
1000
0000
1001
1001
,
0110
0000
0001
1000
0100
0000
0010
0000
,
0001
0000
1000
0000
,
0100
0000
1000
0001
1000
0000
0100
0000
,
0110
0000
0110
0000
0110
0000
0001
1000
,
0010
0100
0010
0000
,
1001
0000
0100
0010
0100
0000
0001
0000
,
1000
0010
0100
0001
,
1000
0100
0010
0001
1000
0000
0001
0000
,
2002
0000
0000
3003
;

//---------------dance-single - BASIC----------------
#NOTES:
     dance-single:
     BASIC:
     easy:
     2:
     0.188,0.296,0.066,0.022,0.000,111.000,6.000,2.000,0.000,0.000:

0000
0000
0000
0000
,
0000
0000
0000
0000
,
0000
0000
0000
0000
,
0000
0000
0000
0000
,
0001
0000
0010
0000
,
1000
0100
1000
0000
,
0001
0000
0100
0000
,
0010
0010
0010
0000
,
1000
0000
0100
0000
,
0010
0001
1000
0001
,
0010
0000
0100
0000
,
0010
0100
0010
0000
,
1001
0000
0000
0000
,
0100
0010
0000
0100
,
1000
0000
0000
0001
,
1000
0001
1000
0001
,
0110
0000
0000
1000
,
0001
0000
0100
0100
,
0000
0000
1000
0001
,
0100
0010
0100
0010
,
0110
0000
0000
0000
,
0001
0000
1000
0000
,
0001
0000
0000
0100
,
0010
0000
0010
0000
,
0010
1000
0001
0000
,
0100
0000
0000
0000
,
0100
0000
0000
0000
,
0010
1000
0001
0000
,
0001
0000
0001
0000
,
0001
0000
1000
0000
,
1000
0010
0100
0010
,
0100
0010
0100
0110
,
0110
1000
0001
0100
,
0000
0001
0000
1000
,
0000
0010
0000
1000
,
0001
1000
0100
0000
,
0001
0000
0010
0000
,
1000
0000
0000
0001
,
1000
0000
0100
0000
,
0010
0010
0010
0000
,
0000
0001
1000
0100
,
0000
0001
0010
0000
,
0001
0000
0100
0000
,
0010
1000
0100
0100
,
0001
0000
0001
0000
,
0000
0010
1000
0000
,
0001
0000
0010
0000
,
1000
0001
1000
0100
,
0202
0000
0000
0303
;
